osu file format v14

[General]
AudioFilename: overdrivers-exh.mp3
AudioLeadIn: 1500
PreviewTime: 34199
Countdown: 0
SampleSet: Soft
StackLeniency: 0.7
Mode: 3
LetterboxInBreaks: 0
WidescreenStoryboard: 1

[Editor]
DistanceSpacing: 1
BeatDivisor: 8
GridSize: 4
TimelineZoom: 1.8

[Metadata]
Title:OVERDRIVERS
TitleUnicode:OVERDRIVERS
Artist:P*Light feat. mow*2
ArtistUnicode:P*Light feat. mow*2
Creator:ExUsagi
Version:ADVANCED
Source:SOUND VOLTEX II -infinite infection-
Tags:SDVX 2 Happy Hardcore Lily KONAMI BEMANI
BeatmapID:465237
BeatmapSetID:196172

[Difficulty]
HPDrainRate:7
CircleSize:7
OverallDifficulty:7
ApproachRate:5
SliderMultiplier:1.4
SliderTickRate:1

[Events]
//Background and Video events
0,0,"overdrivers.jpg",0,0
//Break Periods
//Storyboard Layer 0 (Background)
//Storyboard Layer 1 (Fail)
//Storyboard Layer 2 (Pass)
//Storyboard Layer 3 (Foreground)
//Storyboard Sound Samples

[TimingPoints]
293,338.983050847458,4,2,1,40,1,0
35547,-100,4,2,1,40,0,1
57242,-100,4,2,1,40,0,0
89784,-100,4,2,1,40,0,1
100631,-100,4,2,1,40,0,0

[HitObjects]
402,192,293,5,2,0:0:0:0:
475,192,293,1,8,0:0:0:0:
402,192,547,1,2,0:0:0:0:
475,192,547,1,0,0:0:0:0:
109,192,801,1,2,0:0:0:0:
36,192,801,1,0,0:0:0:0:
475,192,970,1,8,0:0:0:0:
402,192,970,1,2,0:0:0:0:
402,192,1225,1,2,0:0:0:0:
475,192,1225,1,0,0:0:0:0:
109,192,1479,1,2,0:0:0:0:
36,192,1479,1,0,0:0:0:0:
402,192,1648,1,2,0:0:0:0:
475,192,1648,1,8,0:0:0:0:
329,192,1818,1,2,0:0:0:0:
109,192,1903,1,2,0:0:0:0:
36,192,1903,1,8,0:0:0:0:
182,192,2072,1,2,0:0:0:0:
475,192,2157,1,8,0:0:0:0:
402,192,2157,1,2,0:0:0:0:
36,192,2326,1,0,0:0:0:0:
109,192,2411,1,0,0:0:0:0:
182,192,2496,1,0,0:0:0:0:
256,192,2581,1,0,0:0:0:0:
402,192,2665,128,8,3004:0:0:0:0:
329,192,2665,1,0,0:0:0:0:
475,192,2665,1,0,0:0:0:0:
182,192,3004,128,4,3259:0:0:0:0:
36,192,3004,1,2,0:0:0:0:
329,192,3259,128,0,3513:0:0:0:0:
475,192,3513,128,6,3852:0:0:0:0:
182,192,3767,1,0,0:0:0:0:
329,192,3852,128,0,4021:0:0:0:0:
256,192,4021,128,14,4191:0:0:0:0:
182,192,4191,128,0,4360:0:0:0:0:
402,192,4360,128,4,4615:0:0:0:0:
36,192,4360,1,2,0:0:0:0:
109,192,4615,128,0,4869:0:0:0:0:
256,192,4869,128,6,5208:0:0:0:0:
402,192,5123,1,0,0:0:0:0:
109,192,5208,128,0,5377:0:0:0:0:
256,192,5377,128,14,5547:0:0:0:0:
402,192,5547,128,0,5716:0:0:0:0:
475,192,5716,128,4,5970:0:0:0:0:
36,192,5716,1,2,0:0:0:0:
182,192,5970,128,0,6225:0:0:0:0:
36,192,6225,128,6,6564:0:0:0:0:
402,192,6479,1,0,0:0:0:0:
256,192,6564,128,4,6733:0:0:0:0:
329,192,6733,128,6,6903:0:0:0:0:
475,192,6903,128,6,7072:0:0:0:0:
36,192,7072,1,2,0:0:0:0:
182,192,7072,1,12,0:0:0:0:
36,192,7242,1,2,0:0:0:0:
182,192,7242,1,12,0:0:0:0:
321,49,7581,1,12,0:0:0:0:
467,50,7581,1,2,0:0:0:0:
329,172,7920,1,6,0:0:0:0:
182,192,7920,1,8,0:0:0:0:
182,177,8089,1,8,0:0:0:0:
329,192,8089,1,6,0:0:0:0:
329,192,8428,128,4,8682:0:0:0:0:
109,192,8428,1,2,0:0:0:0:
182,192,8682,128,0,8937:0:0:0:0:
256,192,8937,128,6,9276:0:0:0:0:
109,192,9191,1,0,0:0:0:0:
329,192,9276,128,4,9445:0:0:0:0:
256,192,9445,128,6,9615:0:0:0:0:
182,192,9615,128,4,9784:0:0:0:0:
475,192,9784,128,4,10038:0:0:0:0:
109,192,9784,1,2,0:0:0:0:
36,192,10038,128,0,10293:0:0:0:0:
256,192,10293,128,6,10631:0:0:0:0:
36,192,10547,1,0,0:0:0:0:
475,192,10631,128,4,10801:0:0:0:0:
109,192,10801,1,6,0:0:0:0:
182,192,10886,1,0,0:0:0:0:
329,192,10970,1,4,0:0:0:0:
402,192,11055,1,0,0:0:0:0:
256,192,11140,1,6,0:0:0:0:
36,192,11309,1,6,0:0:0:0:
109,192,11394,1,0,0:0:0:0:
182,192,11479,1,6,0:0:0:0:
256,192,11564,1,0,0:0:0:0:
329,192,11648,1,6,0:0:0:0:
402,192,11733,1,0,0:0:0:0:
475,192,11818,1,6,0:0:0:0:
36,192,11903,1,6,0:0:0:0:
402,192,11987,1,6,0:0:0:0:
109,192,12072,1,2,0:0:0:0:
329,192,12157,1,6,0:0:0:0:
182,192,12242,1,6,0:0:0:0:
256,192,12326,128,6,12496:0:0:0:0:
402,192,12665,128,8,13004:0:0:0:0:
475,192,12665,128,6,13004:0:0:0:0:
109,192,13004,128,8,13343:0:0:0:0:
36,192,13004,128,6,13343:0:0:0:0:
402,192,13343,128,8,13852:0:0:0:0:
475,192,13343,128,6,13852:0:0:0:0:
36,154,13513,128,6,13852:0:0:0:0:
109,192,13513,128,8,13852:0:0:0:0:
256,181,13852,128,10,14191:0:0:0:0:
182,192,14021,1,0,0:0:0:0:
329,192,14191,1,0,0:0:0:0:
109,192,14360,1,0,0:0:0:0:
402,192,14530,1,0,0:0:0:0:
182,192,14699,1,0,0:0:0:0:
329,192,14869,1,0,0:0:0:0:
109,192,15038,1,0,0:0:0:0:
36,192,15208,128,2,15716:0:0:0:0:
475,192,15208,128,2,15716:0:0:0:0:
329,192,15716,128,2,16225:0:0:0:0:
182,192,15716,128,2,16225:0:0:0:0:
36,192,16225,128,2,16564:0:0:0:0:
475,192,16225,128,2,16564:0:0:0:0:
255,192,16564,1,0,0:0:0:0:
402,192,16564,1,2,0:0:0:0:
109,192,16733,1,0,0:0:0:0:
329,192,16903,1,2,0:0:0:0:
182,192,16903,1,0,0:0:0:0:
36,192,17072,1,0,0:0:0:0:
475,192,17242,1,2,0:0:0:0:
256,192,17242,1,0,0:0:0:0:
109,192,17411,1,0,0:0:0:0:
329,192,17581,1,2,0:0:0:0:
36,192,17581,1,0,0:0:0:0:
182,192,17750,1,0,0:0:0:0:
36,192,17920,1,0,0:0:0:0:
475,192,17920,1,2,0:0:0:0:
329,192,18089,1,0,0:0:0:0:
182,192,18259,1,2,0:0:0:0:
402,192,18259,1,0,0:0:0:0:
475,192,18428,1,0,0:0:0:0:
36,192,18598,1,2,0:0:0:0:
256,192,18598,1,0,0:0:0:0:
329,192,18767,1,0,0:0:0:0:
182,192,18937,1,2,0:0:0:0:
402,192,18937,1,0,0:0:0:0:
109,192,19106,1,0,0:0:0:0:
36,192,19276,128,0,19445:0:0:0:0:
475,192,19276,1,2,0:0:0:0:
182,192,19445,128,0,19615:0:0:0:0:
109,192,19445,1,0,0:0:0:0:
329,192,19615,128,0,19784:0:0:0:0:
256,192,19615,1,2,0:0:0:0:
475,192,19784,128,0,19954:0:0:0:0:
402,192,19784,1,0,0:0:0:0:
36,192,19954,1,2,0:0:0:0:
109,192,20038,1,0,0:0:0:0:
182,192,20123,1,0,0:0:0:0:
256,192,20208,1,0,0:0:0:0:
475,192,20293,1,2,0:0:0:0:
329,192,20462,1,0,0:0:0:0:
36,192,20631,1,2,0:0:0:0:
109,192,20631,128,0,20801:0:0:0:0:
256,192,20801,128,0,20970:0:0:0:0:
182,192,20801,1,0,0:0:0:0:
329,192,20970,1,2,0:0:0:0:
402,192,20970,128,0,21140:0:0:0:0:
475,192,21140,128,0,21309:0:0:0:0:
36,192,21140,1,0,0:0:0:0:
329,192,21309,1,2,0:0:0:0:
256,192,21394,1,0,0:0:0:0:
182,192,21479,1,0,0:0:0:0:
109,192,21564,1,0,0:0:0:0:
475,192,21648,128,2,21987:0:0:0:0:
36,192,21818,128,0,21987:0:0:0:0:
402,192,21987,1,2,0:0:0:0:
109,192,21987,1,0,0:0:0:0:
256,192,22157,1,0,0:0:0:0:
36,192,22326,1,2,0:0:0:0:
329,192,22326,1,0,0:0:0:0:
256,192,22496,1,0,0:0:0:0:
109,192,22665,1,0,0:0:0:0:
402,192,22665,1,2,0:0:0:0:
182,192,22835,1,0,0:0:0:0:
329,192,23004,1,0,0:0:0:0:
36,192,23004,1,2,0:0:0:0:
256,192,23174,1,0,0:0:0:0:
402,192,23343,1,2,0:0:0:0:
109,192,23343,1,0,0:0:0:0:
329,192,23513,1,0,0:0:0:0:
475,192,23682,1,0,0:0:0:0:
182,192,23682,1,2,0:0:0:0:
256,192,23852,1,0,0:0:0:0:
402,192,24021,1,2,0:0:0:0:
109,192,24021,1,0,0:0:0:0:
182,192,24191,1,0,0:0:0:0:
329,192,24191,1,2,0:0:0:0:
109,192,24360,1,0,0:0:0:0:
182,192,24445,1,0,0:0:0:0:
329,192,24530,1,2,0:0:0:0:
402,192,24615,1,0,0:0:0:0:
475,192,24699,1,2,0:0:0:0:
36,192,24699,128,0,26055:0:0:0:0:
329,192,24869,1,0,0:0:0:0:
475,192,25038,1,2,0:0:0:0:
256,192,25208,1,0,0:0:0:0:
475,192,25377,1,2,0:0:0:0:
182,192,25547,1,0,0:0:0:0:
475,192,25716,1,2,0:0:0:0:
109,192,25886,1,0,0:0:0:0:
182,192,26055,128,2,26394:0:0:0:0:
329,192,26055,128,8,26394:0:0:0:0:
256,192,26394,128,2,26733:0:0:0:0:
402,192,26394,128,8,26733:0:0:0:0:
329,192,26733,128,2,27072:0:0:0:0:
475,192,26733,128,8,27072:0:0:0:0:
36,192,27072,1,0,0:0:0:0:
182,192,27072,1,2,0:0:0:0:
36,192,27411,128,0,28767:0:0:0:0:
182,192,27411,1,2,0:0:0:0:
256,192,27581,1,0,0:0:0:0:
182,192,27750,1,2,0:0:0:0:
329,192,27920,1,0,0:0:0:0:
182,192,28089,1,2,0:0:0:0:
402,192,28259,1,0,0:0:0:0:
182,192,28428,1,2,0:0:0:0:
475,192,28598,1,0,0:0:0:0:
109,192,28767,128,2,29106:0:0:0:0:
329,192,28767,128,8,29106:0:0:0:0:
182,192,29106,128,2,29445:0:0:0:0:
402,192,29106,128,8,29445:0:0:0:0:
256,192,29445,128,2,29784:0:0:0:0:
475,192,29445,128,8,29784:0:0:0:0:
36,192,29784,1,2,0:0:0:0:
182,192,29784,1,0,0:0:0:0:
36,192,29954,1,2,0:0:0:0:
182,192,29954,1,0,0:0:0:0:
256,192,30123,128,8,30462:0:0:0:0:
402,192,30123,1,2,0:0:0:0:
109,192,30123,128,0,30462:0:0:0:0:
182,192,30801,1,2,0:0:0:0:
475,192,30801,128,0,31140:0:0:0:0:
329,192,30801,128,8,31140:0:0:0:0:
36,192,31140,128,0,31479:0:0:0:0:
109,192,31479,128,0,31818:0:0:0:0:
256,192,31479,128,8,32157:0:0:0:0:
475,192,31479,1,2,0:0:0:0:
475,192,32157,128,8,32835:0:0:0:0:
329,192,32157,128,0,32496:0:0:0:0:
36,192,32157,1,2,0:0:0:0:
109,192,32835,128,2,33174:0:0:0:0:
36,192,32835,128,0,33174:0:0:0:0:
402,192,33174,128,2,33513:0:0:0:0:
475,192,33174,128,0,33513:0:0:0:0:
109,192,33513,1,2,0:0:0:0:
182,192,33598,1,2,0:0:0:0:
329,192,33682,1,2,0:0:0:0:
402,192,33767,1,2,0:0:0:0:
109,192,33852,1,2,0:0:0:0:
182,192,33937,1,2,0:0:0:0:
329,192,34021,1,2,0:0:0:0:
402,192,34106,1,2,0:0:0:0:
109,192,34191,128,8,34360:0:0:0:0:
182,192,34191,128,2,34360:0:0:0:0:
402,192,34360,128,8,34530:0:0:0:0:
329,192,34360,128,2,34530:0:0:0:0:
109,192,34530,128,8,34869:0:0:0:0:
182,192,34530,128,2,34869:0:0:0:0:
182,192,35208,128,8,35547:0:0:0:0:
329,192,35208,128,2,35547:0:0:0:0:
109,192,35547,1,0,0:0:0:0:
475,192,35547,1,2,0:0:0:0:
402,192,35716,128,4,35886:0:0:0:0:
36,192,35886,1,0,0:0:0:0:
182,192,35886,1,2,0:0:0:0:
109,192,36055,128,4,36225:0:0:0:0:
329,192,36225,1,2,0:0:0:0:
475,192,36225,1,0,0:0:0:0:
402,192,36394,128,4,36564:0:0:0:0:
36,192,36564,1,0,0:0:0:0:
182,192,36564,1,2,0:0:0:0:
256,192,36733,128,4,36903:0:0:0:0:
109,192,36903,1,2,0:0:0:0:
402,192,36903,1,0,0:0:0:0:
182,192,37072,128,4,37242:0:0:0:0:
329,192,37242,1,0,0:0:0:0:
36,192,37242,1,2,0:0:0:0:
256,192,37411,128,4,37581:0:0:0:0:
402,192,37581,1,0,0:0:0:0:
109,192,37581,1,2,0:0:0:0:
329,192,37750,128,4,37920:0:0:0:0:
182,192,37920,1,2,0:0:0:0:
475,192,37920,1,0,0:0:0:0:
402,192,38089,128,4,38259:0:0:0:0:
109,192,38259,1,2,0:0:0:0:
36,192,38259,1,0,0:0:0:0:
182,192,38428,128,4,38598:0:0:0:0:
475,192,38598,1,0,0:0:0:0:
402,192,38598,1,2,0:0:0:0:
329,192,38767,128,4,38937:0:0:0:0:
475,192,38937,1,0,0:0:0:0:
109,192,38937,1,2,0:0:0:0:
182,192,39106,128,4,39276:0:0:0:0:
36,192,39276,1,0,0:0:0:0:
402,192,39276,1,2,0:0:0:0:
475,192,39445,128,4,40631:0:0:0:0:
256,192,39615,128,2,39784:0:0:0:0:
400,192,39784,128,4,39954:0:0:0:0:
182,192,39954,128,2,40123:0:0:0:0:
329,192,40123,128,4,40293:0:0:0:0:
109,192,40293,128,2,40462:0:0:0:0:
256,192,40462,128,4,40631:0:0:0:0:
36,192,40631,128,2,40801:0:0:0:0:
329,192,40801,1,2,0:0:0:0:
475,192,40801,1,4,0:0:0:0:
329,192,40970,1,2,0:0:0:0:
475,192,40970,1,0,0:0:0:0:
109,192,41140,128,4,41309:0:0:0:0:
475,192,41309,1,0,0:0:0:0:
329,192,41309,1,2,0:0:0:0:
402,192,41479,128,4,41648:0:0:0:0:
109,192,41648,1,0,0:0:0:0:
256,192,41648,1,2,0:0:0:0:
36,192,41818,128,4,41987:0:0:0:0:
402,192,41987,1,0,0:0:0:0:
256,192,41987,1,2,0:0:0:0:
329,192,42157,128,4,42326:0:0:0:0:
475,192,42326,1,0,0:0:0:0:
109,192,42326,1,2,0:0:0:0:
256,192,42496,128,4,42665:0:0:0:0:
475,192,42665,1,0,0:0:0:0:
182,192,42665,1,2,0:0:0:0:
109,192,42835,128,4,43004:0:0:0:0:
402,192,43004,1,0,0:0:0:0:
256,192,43004,1,2,0:0:0:0:
182,192,43174,128,4,43343:0:0:0:0:
36,192,43343,1,0,0:0:0:0:
329,192,43343,1,2,0:0:0:0:
256,192,43513,128,4,43682:0:0:0:0:
109,192,43682,1,0,0:0:0:0:
402,192,43682,1,2,0:0:0:0:
475,192,43852,128,4,44021:0:0:0:0:
256,192,44021,1,0,0:0:0:0:
329,192,44021,1,2,0:0:0:0:
109,192,44191,128,4,44360:0:0:0:0:
182,192,44360,1,2,0:0:0:0:
256,192,44360,1,0,0:0:0:0:
402,192,44530,128,4,44699:0:0:0:0:
109,192,44699,1,0,0:0:0:0:
182,192,44699,1,2,0:0:0:0:
36,192,44869,128,4,45716:0:0:0:0:
182,192,45038,128,2,45208:0:0:0:0:
256,192,45038,1,0,0:0:0:0:
402,192,45208,128,4,45377:0:0:0:0:
256,192,45377,128,2,45547:0:0:0:0:
329,192,45377,1,0,0:0:0:0:
475,192,45547,128,4,45716:0:0:0:0:
109,192,45716,1,0,0:0:0:0:
182,192,45716,1,2,0:0:0:0:
475,192,45886,1,4,0:0:0:0:
402,192,45886,1,2,0:0:0:0:
182,192,46055,1,2,0:0:0:0:
109,192,46055,1,0,0:0:0:0:
475,192,46225,1,4,0:0:0:0:
402,192,46225,1,2,0:0:0:0:
182,192,46394,128,0,47411:0:0:0:0:
36,192,46394,1,2,0:0:0:0:
329,192,46733,128,0,47750:0:0:0:0:
475,192,46733,1,2,0:0:0:0:
36,192,47072,1,2,0:0:0:0:
109,192,47072,1,0,0:0:0:0:
402,192,47411,1,0,0:0:0:0:
475,192,47411,1,2,0:0:0:0:
109,192,47581,1,4,0:0:0:0:
36,192,47750,1,0,0:0:0:0:
182,192,47750,1,2,0:0:0:0:
402,192,47920,1,4,0:0:0:0:
329,192,48089,1,2,0:0:0:0:
475,192,48089,1,0,0:0:0:0:
109,192,48259,1,4,0:0:0:0:
182,192,48428,1,2,0:0:0:0:
36,192,48428,1,0,0:0:0:0:
475,192,48598,1,4,0:0:0:0:
402,192,48682,1,0,0:0:0:0:
329,192,48767,1,2,0:0:0:0:
182,192,48852,1,0,0:0:0:0:
109,192,48937,1,4,0:0:0:0:
36,192,49021,1,0,0:0:0:0:
329,192,49106,128,0,50123:0:0:0:0:
475,192,49106,1,2,0:0:0:0:
182,192,49445,128,0,50462:0:0:0:0:
36,192,49445,1,2,0:0:0:0:
475,192,49784,1,2,0:0:0:0:
402,192,49784,1,0,0:0:0:0:
109,192,50123,1,0,0:0:0:0:
36,192,50123,1,2,0:0:0:0:
402,192,50293,1,4,0:0:0:0:
475,192,50462,1,0,0:0:0:0:
329,192,50462,1,2,0:0:0:0:
109,192,50631,1,4,0:0:0:0:
36,192,50801,1,0,0:0:0:0:
182,192,50801,1,2,0:0:0:0:
402,192,50970,1,4,0:0:0:0:
475,192,51140,1,0,0:0:0:0:
329,192,51140,1,2,0:0:0:0:
36,192,51309,128,4,51479:0:0:0:0:
182,192,51479,1,6,0:0:0:0:
256,192,51564,1,6,0:0:0:0:
329,192,51648,1,6,0:0:0:0:
402,192,51733,1,6,0:0:0:0:
475,192,51818,1,2,0:0:0:0:
36,192,51818,128,0,54530:0:0:0:0:
109,192,51818,1,8,0:0:0:0:
182,192,51987,1,6,0:0:0:0:
256,192,52157,1,2,0:0:0:0:
475,192,52326,1,6,0:0:0:0:
402,192,52411,1,2,0:0:0:0:
329,192,52496,1,2,0:0:0:0:
256,192,52665,5,6,0:0:0:0:
182,192,52835,1,2,0:0:0:0:
475,192,53004,1,6,0:0:0:0:
402,192,53089,1,2,0:0:0:0:
182,192,53174,1,10,0:0:0:0:
256,192,53259,1,2,0:0:0:0:
329,192,53343,1,6,0:0:0:0:
182,192,53513,1,2,0:0:0:0:
256,192,53598,1,2,0:0:0:0:
475,192,53682,1,6,0:0:0:0:
402,192,53767,1,2,0:0:0:0:
329,192,53852,1,2,0:0:0:0:
475,192,54021,1,6,0:0:0:0:
182,192,54191,1,2,0:0:0:0:
256,192,54276,1,2,0:0:0:0:
329,192,54360,1,6,0:0:0:0:
402,192,54445,1,2,0:0:0:0:
475,192,54530,1,0,0:0:0:0:
182,192,54530,1,2,0:0:0:0:
402,192,54699,1,0,0:0:0:0:
109,192,54699,1,2,0:0:0:0:
329,192,54869,1,0,0:0:0:0:
36,192,54869,1,2,0:0:0:0:
402,192,55038,1,0,0:0:0:0:
109,192,55038,1,2,0:0:0:0:
182,192,55208,128,4,55462:0:0:0:0:
475,192,55208,128,10,55462:0:0:0:0:
329,192,55462,128,10,55716:0:0:0:0:
36,192,55462,128,4,55716:0:0:0:0:
109,192,55716,128,10,55886:0:0:0:0:
402,192,55716,128,4,55886:0:0:0:0:
475,192,55886,128,10,56225:0:0:0:0:
182,192,55886,128,4,56225:0:0:0:0:
402,192,56903,128,2,57242:0:0:0:0:
256,192,56903,128,8,57242:0:0:0:0:
109,192,57242,1,4,0:0:0:0:
182,192,57326,1,0,0:0:0:0:
329,192,57411,1,0,0:0:0:0:
402,192,57496,1,0,0:0:0:0:
36,192,57581,1,0,0:0:0:0:
109,192,57665,1,0,0:0:0:0:
256,192,57750,1,4,0:0:0:0:
329,192,57835,1,0,0:0:0:0:
475,192,57920,1,0,0:0:0:0:
402,192,58004,1,0,0:0:0:0:
329,192,58089,1,0,0:0:0:0:
256,192,58174,1,0,0:0:0:0:
182,192,58259,1,4,0:0:0:0:
109,192,58343,1,0,0:0:0:0:
36,192,58428,1,0,0:0:0:0:
329,192,58513,1,0,0:0:0:0:
182,192,58598,1,4,0:0:0:0:
256,192,58682,1,0,0:0:0:0:
402,192,58767,1,0,0:0:0:0:
475,192,58852,1,0,0:0:0:0:
109,192,58937,1,0,0:0:0:0:
182,192,59021,1,0,0:0:0:0:
329,192,59106,1,4,0:0:0:0:
402,192,59191,1,0,0:0:0:0:
475,192,59276,1,0,0:0:0:0:
329,192,59360,1,0,0:0:0:0:
182,192,59445,1,0,0:0:0:0:
36,192,59530,1,0,0:0:0:0:
402,192,59615,128,4,59954:0:0:0:0:
109,192,59615,128,2,59954:0:0:0:0:
475,192,59954,128,8,60208:0:0:0:0:
329,192,59954,128,2,60208:0:0:0:0:
36,192,60208,128,8,60462:0:0:0:0:
182,192,60208,128,2,60462:0:0:0:0:
475,192,60462,128,8,60716:0:0:0:0:
329,192,60462,128,2,60716:0:0:0:0:
36,192,60716,128,8,60970:0:0:0:0:
109,192,60716,128,2,60970:0:0:0:0:
182,192,60970,128,8,61225:0:0:0:0:
329,192,60970,128,2,61225:0:0:0:0:
109,192,61225,128,8,61479:0:0:0:0:
402,192,61225,128,2,61479:0:0:0:0:
182,192,61648,1,2,0:0:0:0:
36,192,61648,128,8,62157:0:0:0:0:
329,192,61818,1,2,0:0:0:0:
475,192,61818,128,8,62157:0:0:0:0:
402,163,62157,128,10,62242:0:0:0:0:
329,159,62242,128,0,62326:0:0:0:0:
256,151,62326,128,0,62411:0:0:0:0:
182,151,62411,128,0,62496:0:0:0:0:
109,152,62496,128,0,62581:0:0:0:0:
36,160,62581,128,0,62665:0:0:0:0:
475,167,62665,128,0,62835:0:0:0:0:
329,192,62665,1,2,0:0:0:0:
256,167,62835,1,4,0:0:0:0:
31,139,63004,1,0,0:0:0:0:
182,192,63004,1,2,0:0:0:0:
329,192,63174,128,0,63343:0:0:0:0:
475,192,63174,1,4,0:0:0:0:
256,192,63343,1,2,0:0:0:0:
182,192,63513,1,4,0:0:0:0:
36,192,63513,1,0,0:0:0:0:
109,192,63682,128,0,63852:0:0:0:0:
475,192,63682,1,2,0:0:0:0:
475,192,64021,128,0,64191:0:0:0:0:
36,192,64021,1,2,0:0:0:0:
256,166,64191,1,4,0:0:0:0:
36,192,64360,1,0,0:0:0:0:
329,192,64360,1,2,0:0:0:0:
402,192,64530,128,0,64699:0:0:0:0:
109,192,64530,1,4,0:0:0:0:
256,179,64699,1,2,0:0:0:0:
109,167,64869,1,0,0:0:0:0:
329,192,64869,1,4,0:0:0:0:
182,181,65038,128,0,65208:0:0:0:0:
402,192,65038,1,2,0:0:0:0:
475,192,65377,128,0,65547:0:0:0:0:
402,192,65377,128,2,65547:0:0:0:0:
36,192,65716,128,0,65886:0:0:0:0:
109,192,65716,128,2,65886:0:0:0:0:
475,192,66055,128,0,66225:0:0:0:0:
402,192,66055,128,2,66225:0:0:0:0:
36,192,66394,128,2,66733:0:0:0:0:
402,192,66733,1,2,0:0:0:0:
109,192,66733,128,0,68089:0:0:0:0:
329,192,67411,1,8,0:0:0:0:
475,192,67524,1,8,0:0:0:0:
329,192,67637,1,8,0:0:0:0:
475,192,67750,128,8,68089:0:0:0:0:
402,192,68089,128,0,68259:0:0:0:0:
182,192,68089,1,2,0:0:0:0:
256,192,68259,1,4,0:0:0:0:
182,192,68428,128,2,68598:0:0:0:0:
256,192,68598,1,4,0:0:0:0:
329,192,68767,128,2,68937:0:0:0:0:
256,192,68937,1,4,0:0:0:0:
475,192,69106,128,2,69276:0:0:0:0:
256,192,69276,1,4,0:0:0:0:
36,192,69445,1,0,0:0:0:0:
402,192,69445,128,2,69615:0:0:0:0:
256,192,69615,1,4,0:0:0:0:
109,192,69784,128,2,69954:0:0:0:0:
256,192,69954,1,4,0:0:0:0:
36,192,70123,128,2,70293:0:0:0:0:
256,192,70293,1,4,0:0:0:0:
475,192,70462,128,2,70631:0:0:0:0:
256,192,70631,1,4,0:0:0:0:
329,192,70801,1,0,0:0:0:0:
402,192,70801,128,2,70970:0:0:0:0:
256,192,70970,1,4,0:0:0:0:
182,192,71140,128,2,71309:0:0:0:0:
256,192,71309,1,4,0:0:0:0:
402,192,71479,128,2,71648:0:0:0:0:
256,192,71648,1,4,0:0:0:0:
182,192,71818,128,2,71987:0:0:0:0:
256,192,71987,1,4,0:0:0:0:
329,192,72157,1,0,0:0:0:0:
36,192,72157,128,2,72326:0:0:0:0:
256,192,72326,1,4,0:0:0:0:
402,192,72496,128,2,72665:0:0:0:0:
256,192,72665,1,4,0:0:0:0:
36,192,72835,128,2,73004:0:0:0:0:
256,192,73004,1,4,0:0:0:0:
329,192,73174,1,0,0:0:0:0:
402,192,73174,1,2,0:0:0:0:
329,192,73343,1,4,0:0:0:0:
402,192,73343,1,2,0:0:0:0:
256,192,73513,1,2,0:0:0:0:
36,192,73513,1,0,0:0:0:0:
475,192,73513,1,0,0:0:0:0:
256,192,73682,1,6,0:0:0:0:
256,192,73852,1,2,0:0:0:0:
329,192,74021,1,6,0:0:0:0:
256,192,74106,1,2,0:0:0:0:
182,192,74191,1,2,0:0:0:0:
256,192,74360,1,6,0:0:0:0:
256,192,74530,1,2,0:0:0:0:
329,192,74699,1,6,0:0:0:0:
256,192,74784,1,2,0:0:0:0:
182,192,74869,1,2,0:0:0:0:
475,192,74954,1,2,0:0:0:0:
402,192,75038,1,6,0:0:0:0:
329,192,75123,1,2,0:0:0:0:
256,192,75208,1,2,0:0:0:0:
182,192,75293,1,2,0:0:0:0:
109,192,75377,1,6,0:0:0:0:
36,192,75462,1,2,0:0:0:0:
256,192,75547,1,2,0:0:0:0:
256,192,75716,1,6,0:0:0:0:
256,192,75886,1,2,0:0:0:0:
256,192,76055,1,6,0:0:0:0:
475,192,76140,1,2,0:0:0:0:
256,192,76225,1,2,0:0:0:0:
329,192,76309,1,2,0:0:0:0:
402,192,76394,1,6,0:0:0:0:
475,192,76479,1,2,0:0:0:0:
182,192,76564,1,2,0:0:0:0:
256,192,76648,1,2,0:0:0:0:
329,192,76733,1,6,0:0:0:0:
402,192,76818,1,2,0:0:0:0:
109,192,76903,1,2,0:0:0:0:
182,192,76987,1,2,0:0:0:0:
256,192,77072,1,6,0:0:0:0:
329,192,77157,1,2,0:0:0:0:
36,192,77242,1,2,0:0:0:0:
109,192,77326,1,2,0:0:0:0:
182,192,77411,1,6,0:0:0:0:
256,192,77496,1,2,0:0:0:0:
329,192,77581,1,4,0:0:0:0:
475,192,77581,128,10,77750:0:0:0:0:
36,192,77750,128,10,77920:0:0:0:0:
182,192,77750,1,4,0:0:0:0:
475,192,77920,128,10,78089:0:0:0:0:
329,192,77920,1,4,0:0:0:0:
329,192,78259,1,4,0:0:0:0:
256,192,78343,1,4,0:0:0:0:
182,192,78428,1,4,0:0:0:0:
109,192,78513,1,4,0:0:0:0:
36,192,78598,1,4,0:0:0:0:
475,192,78598,128,10,78937:0:0:0:0:
182,192,78937,1,2,0:0:0:0:
329,192,78937,1,0,0:0:0:0:
256,192,78937,128,0,79954:0:0:0:0:
109,192,79954,1,0,0:0:0:0:
36,192,79954,1,2,0:0:0:0:
182,192,79954,128,0,80123:0:0:0:0:
475,192,80123,1,4,0:0:0:0:
402,192,80123,1,2,0:0:0:0:
329,192,80123,128,0,80293:0:0:0:0:
109,192,80293,1,2,0:0:0:0:
36,192,80293,1,0,0:0:0:0:
109,192,80462,1,2,0:0:0:0:
36,192,80462,1,0,0:0:0:0:
402,192,80631,1,4,0:0:0:0:
475,192,80631,1,0,0:0:0:0:
329,192,80801,1,0,0:0:0:0:
256,192,80801,1,2,0:0:0:0:
182,192,80970,1,0,0:0:0:0:
109,192,80970,1,2,0:0:0:0:
475,192,81140,128,4,81309:0:0:0:0:
329,192,81309,128,2,81479:0:0:0:0:
182,192,81479,128,2,81648:0:0:0:0:
475,192,81648,1,2,0:0:0:0:
402,192,81648,1,8,0:0:0:0:
36,192,81648,128,0,82157:0:0:0:0:
402,192,82157,1,8,0:0:0:0:
475,192,82157,1,2,0:0:0:0:
182,192,82157,128,0,82665:0:0:0:0:
329,192,82665,1,2,0:0:0:0:
402,192,82665,1,8,0:0:0:0:
36,192,82665,128,0,82835:0:0:0:0:
402,192,82835,1,8,0:0:0:0:
475,192,82835,1,2,0:0:0:0:
182,192,82835,128,0,83343:0:0:0:0:
475,192,83343,128,2,83682:0:0:0:0:
109,192,83682,1,2,0:0:0:0:
182,192,83767,1,2,0:0:0:0:
256,192,83852,1,2,0:0:0:0:
329,192,83937,1,2,0:0:0:0:
402,192,84021,128,10,84360:0:0:0:0:
36,192,84360,1,2,0:0:0:0:
475,192,84360,1,0,0:0:0:0:
256,192,84360,128,0,85377:0:0:0:0:
36,192,85377,128,0,85547:0:0:0:0:
182,192,85377,128,2,85547:0:0:0:0:
329,192,85547,128,4,85716:0:0:0:0:
475,192,85547,128,2,85716:0:0:0:0:
256,192,85716,1,2,0:0:0:0:
256,192,85886,1,2,0:0:0:0:
36,192,86055,128,0,87072:0:0:0:0:
475,192,86055,128,4,86733:0:0:0:0:
109,192,87072,128,8,87581:0:0:0:0:
256,192,87072,128,2,87581:0:0:0:0:
329,192,87581,128,2,88089:0:0:0:0:
182,192,87581,128,8,88089:0:0:0:0:
402,192,88089,128,2,88259:0:0:0:0:
36,192,88089,128,8,88259:0:0:0:0:
109,192,88259,128,8,88428:0:0:0:0:
475,192,88259,128,2,88428:0:0:0:0:
182,192,88428,128,2,88598:0:0:0:0:
256,192,88598,128,2,88767:0:0:0:0:
329,192,88767,128,2,88937:0:0:0:0:
402,192,88937,128,2,89106:0:0:0:0:
36,192,89106,1,2,0:0:0:0:
109,192,89191,1,2,0:0:0:0:
182,192,89276,1,2,0:0:0:0:
256,192,89360,1,2,0:0:0:0:
329,192,89445,1,8,0:0:0:0:
475,192,89445,128,2,89784:0:0:0:0:
256,192,89784,1,2,0:0:0:0:
36,192,89784,1,0,0:0:0:0:
402,192,89954,128,0,90123:0:0:0:0:
182,192,89954,1,4,0:0:0:0:
109,192,90123,1,2,0:0:0:0:
36,192,90293,1,4,0:0:0:0:
475,192,90293,128,0,90462:0:0:0:0:
182,192,90462,1,2,0:0:0:0:
36,192,90631,128,0,90801:0:0:0:0:
256,192,90631,1,4,0:0:0:0:
329,192,90801,1,2,0:0:0:0:
109,192,90970,1,0,0:0:0:0:
402,192,90970,1,4,0:0:0:0:
182,192,90970,128,0,91140:0:0:0:0:
475,192,91140,1,2,0:0:0:0:
329,192,91309,128,0,91479:0:0:0:0:
109,192,91309,1,4,0:0:0:0:
182,192,91479,1,2,0:0:0:0:
475,192,91648,128,0,92496:0:0:0:0:
256,192,91648,1,4,0:0:0:0:
329,192,91818,1,2,0:0:0:0:
256,192,91903,1,0,0:0:0:0:
182,192,91987,1,4,0:0:0:0:
109,192,92072,1,0,0:0:0:0:
402,192,92157,1,2,0:0:0:0:
329,192,92242,1,0,0:0:0:0:
256,192,92326,1,4,0:0:0:0:
182,192,92411,1,0,0:0:0:0:
109,192,92496,1,2,0:0:0:0:
402,192,92496,1,0,0:0:0:0:
36,192,92665,1,4,0:0:0:0:
256,192,92665,128,0,92835:0:0:0:0:
109,192,92835,1,2,0:0:0:0:
402,192,93004,1,4,0:0:0:0:
182,192,93004,128,0,93174:0:0:0:0:
256,192,93174,1,2,0:0:0:0:
182,192,93343,1,4,0:0:0:0:
329,192,93343,128,0,93513:0:0:0:0:
109,192,93513,1,2,0:0:0:0:
402,192,93682,1,4,0:0:0:0:
36,192,93682,128,0,93852:0:0:0:0:
256,192,93852,1,2,0:0:0:0:
475,192,93937,1,2,0:0:0:0:
329,192,94021,1,6,0:0:0:0:
182,192,94106,1,2,0:0:0:0:
36,192,94191,128,2,94530:0:0:0:0:
329,192,94360,128,4,94699:0:0:0:0:
109,192,94530,128,2,94869:0:0:0:0:
402,192,94699,128,4,95038:0:0:0:0:
182,192,94869,128,2,95208:0:0:0:0:
475,192,95038,128,6,95208:0:0:0:0:
402,192,95208,1,2,0:0:0:0:
256,192,95208,1,8,0:0:0:0:
402,192,95377,1,2,0:0:0:0:
256,192,95377,1,4,0:0:0:0:
109,191,95547,1,2,0:0:0:0:
402,192,95716,1,6,0:0:0:0:
329,192,95801,1,2,0:0:0:0:
109,192,95886,1,2,0:0:0:0:
256,192,95886,1,0,0:0:0:0:
256,192,96055,1,4,0:0:0:0:
109,192,96055,1,2,0:0:0:0:
402,192,96225,1,2,0:0:0:0:
109,192,96394,1,6,0:0:0:0:
256,186,96479,1,2,0:0:0:0:
109,192,96564,1,2,0:0:0:0:
402,192,96564,1,8,0:0:0:0:
256,192,96648,1,2,0:0:0:0:
402,192,96733,1,6,0:0:0:0:
402,192,96903,1,2,0:0:0:0:
109,192,96903,1,0,0:0:0:0:
329,192,96987,1,2,0:0:0:0:
256,192,97072,1,6,0:0:0:0:
182,192,97157,1,2,0:0:0:0:
109,192,97242,128,2,97411:0:0:0:0:
329,192,97411,128,2,97581:0:0:0:0:
475,192,97581,128,2,97750:0:0:0:0:
182,192,97750,128,2,98598:0:0:0:0:
36,192,97750,128,0,98598:0:0:0:0:
329,192,97920,1,2,0:0:0:0:
475,192,97920,1,0,0:0:0:0:
329,192,98089,1,2,0:0:0:0:
475,192,98089,1,0,0:0:0:0:
329,192,98259,1,2,0:0:0:0:
475,192,98259,1,0,0:0:0:0:
329,192,98428,1,2,0:0:0:0:
475,192,98428,1,0,0:0:0:0:
109,192,98598,128,8,98852:0:0:0:0:
256,192,98598,128,2,98852:0:0:0:0:
329,192,98852,128,2,99106:0:0:0:0:
475,192,98852,128,8,99106:0:0:0:0:
36,192,99106,128,8,99276:0:0:0:0:
182,192,99106,128,2,99276:0:0:0:0:
402,192,99276,128,2,100293:0:0:0:0:
256,192,99276,128,8,100123:0:0:0:0:
109,192,99445,1,2,1:0:0:0:
109,192,99784,1,2,1:0:0:0:
109,192,100123,128,2,100293:0:0:0:0:
475,192,100293,128,2,100631:0:0:0:0:
36,192,100293,128,8,100631:0:0:0:0:
329,192,100631,128,0,100886:0:0:0:0:
256,192,100631,1,2,0:0:0:0:
109,192,100631,1,4,0:0:0:0:
182,192,100886,128,0,101140:0:0:0:0:
475,192,101140,128,6,101479:0:0:0:0:
109,192,101394,1,0,0:0:0:0:
329,190,101479,128,4,101648:0:0:0:0:
256,190,101648,128,14,101818:0:0:0:0:
182,190,101818,128,4,101987:0:0:0:0:
36,192,101987,1,2,0:0:0:0:
402,192,101987,128,4,102242:0:0:0:0:
109,192,102242,128,0,102496:0:0:0:0:
256,192,102496,128,6,102835:0:0:0:0:
402,192,102750,1,0,0:0:0:0:
109,192,102835,128,4,103004:0:0:0:0:
256,192,103004,128,14,103174:0:0:0:0:
402,192,103174,128,4,103343:0:0:0:0:
36,192,103343,1,2,0:0:0:0:
475,192,103343,128,4,103598:0:0:0:0:
329,192,103598,128,0,103852:0:0:0:0:
36,192,103852,128,6,104191:0:0:0:0:
402,192,104106,1,0,0:0:0:0:
109,192,104191,128,4,104360:0:0:0:0:
182,192,104360,128,6,104530:0:0:0:0:
256,192,104530,128,6,104699:0:0:0:0:
475,192,104699,1,6,0:0:0:0:
329,192,104699,1,8,0:0:0:0:
475,192,104869,1,6,0:0:0:0:
329,192,104869,1,8,0:0:0:0:
475,192,105208,1,14,0:0:0:0:
109,192,105208,1,0,0:0:0:0:
250,158,105547,1,8,0:0:0:0:
36,179,105547,1,6,0:0:0:0:
475,192,105716,1,0,0:0:0:0:
36,192,105716,1,6,0:0:0:0:
256,192,105716,1,8,0:0:0:0:
329,192,106055,128,6,106309:0:0:0:0:
475,170,106055,1,0,0:0:0:0:
182,192,106309,128,0,106564:0:0:0:0:
402,192,106564,128,6,106903:0:0:0:0:
329,192,106818,128,0,106903:0:0:0:0:
36,192,106903,128,4,107072:0:0:0:0:
182,192,107072,128,6,107242:0:0:0:0:
329,192,107242,128,4,107411:0:0:0:0:
256,192,107411,128,6,107665:0:0:0:0:
475,192,107411,1,0,0:0:0:0:
109,192,107665,128,0,107920:0:0:0:0:
402,192,107920,128,6,108259:0:0:0:0:
475,192,108174,128,0,108259:0:0:0:0:
182,192,108259,128,4,108428:0:0:0:0:
329,192,108428,128,6,108598:0:0:0:0:
475,192,108598,128,4,108767:0:0:0:0:
36,192,108767,1,2,0:0:0:0:
329,192,108937,1,2,0:0:0:0:
36,192,109106,1,2,0:0:0:0:
329,192,109276,1,2,0:0:0:0:
36,192,109445,1,2,0:0:0:0:
256,192,109530,1,2,0:0:0:0:
402,192,109615,1,2,0:0:0:0:
109,192,109699,1,2,0:0:0:0:
329,192,109784,1,2,0:0:0:0:
475,192,109869,1,2,0:0:0:0:
36,192,109954,1,2,0:0:0:0:
182,192,110038,1,2,0:0:0:0:
402,192,110293,128,6,110631:0:0:0:0:
109,192,110293,128,8,110631:0:0:0:0:
475,192,110631,128,6,110970:0:0:0:0:
36,192,110631,128,8,110970:0:0:0:0:
182,192,110970,128,2,111140:0:0:0:0:
329,192,110970,128,12,111140:0:0:0:0:
36,192,111140,128,8,111479:0:0:0:0:
475,192,111140,128,6,111479:0:0:0:0:
182,192,111479,1,8,0:0:0:0:
329,192,111479,1,2,0:0:0:0:
256,192,111479,1,4,0:0:0:0:
